Estrenos de Cine | Hellsing | 1x06 Scholar who walks the night








Info

The Getaway


5.7
IMDB: 5.7/10 14,531 votes

Durata: 115 min

Released:

Anno: 11 Feb 1994

Direttore:

Premi: 3 nominations.

Stato: Released

Paese: USA, Japan

Cast:




Grazie alla propria influenza politica Jack Benyon riesce a far rilasciare dalle carceri messicane Carter Mc Coy, detto “Doc”, un rapinatore professionista, su richiesta della moglie Carol. Per sdebitarsi Mc Coy accetta di prendere parte ad una grossa rapina ad un cinodromo in Arizona organizzata da Benyon, giurando a Carol che sarà l’ultima. Il colpo riesce bene ma al momento di dividersi il bottino Rudy, uno dei due complici di Mc Coy (che in passato, tradendolo, ne aveva facilitato la cattura), nel tentativo di accaparrarsi tutto fredda a bruciapelo l’altro complice, Hansen, e prova ad eliminare anche Doc, il quale però capendone le intenzioni reagisce sparandogli ripetutamente; Rudy cade a terra apparentemente esanime, ma si salverà perché nascostamente protetto da un giubbotto antiproiettile.

Doc, credendolo morto ed essendo in possesso dell’intera refurtiva, decide allora di recarsi da Benyon per spartire i soldi come pattuito, nonostante Carol cerchi in tutti i modi di dissuaderlo. Giunti alla villa del ricco boss, Mc Coy scopre che in realtà egli lo aveva fatto scarcerare in cambio di ripetute prestazioni sessuali da parte di sua moglie, la quale nel momento di massima tensione tra i due irrompe sulla scena armata di revolver ed uccide Benyon. Le rivelazioni di quest’ultimo circa il comportamento di Carol generano in Doc frustrazione e rabbia, ma dopo un’aspra lite la coppia si riconcilia e decide di mettersi in fuga col malloppo verso il Messico.

Nel frattempo Rudy, ripresosi, si reca presso una clinica locale per farsi medicare. Qui costringe, sotto la minaccia di una pistola, il veterinario Harold Carvey e sua moglie Fran a scortarlo in auto fino a El Paso. Durante una sosta in un motel, Fran e Rudy hanno un rapporto sessuale di fronte a un impotente Harold, legato a una sedia nel bagno. Davanti al tradimento sfacciato della moglie, Harold decide di impiccarsi.

Trailer


Upload on Youtube

Info File

General
Unique ID : 218158327573057829791040742356809715319 (0xA41FC3FC55220B02ABCF31112C108E77)
Complete name : C:\Users\Sergio\Desktop\Getaway.1994.Ita.Eng.Rus.HDDVDRip.720p.x264.Mux.By.Giovanni33.mkv
Format : Matroska
Format version : Version 4 / Version 2
File size : 5.04 GiB
Duration : 1h 55mn
Overall bit rate : 6 234 Kbps
Movie name : The.Getaway.HDDVDRip.720p.x264.HDTracker.ru
Encoded date : UTC 2016-10-11 08:30:42
Writing application : mkvmerge v9.3.1 ('Mask Machine') 32bit
Writing library : libebml v1.3.4 + libmatroska v1.4.5

Video
ID : 5
Format : AVC
Format/Info : Advanced Video Codec
Format profile : [email protected]
Format settings, CABAC : Yes
Format settings, ReFrames : 8 frames
Codec ID : V_MPEG4/ISO/AVC
Duration : 1h 55mn
Bit rate : 4 760 Kbps
Width : 1 280 pixels
Height : 544 pixels
Display aspect ratio : 2.35:1
Frame rate mode : Constant
Frame rate : 23.976 fps
Color space : YUV
Chroma subsampling : 4:2:0
Bit depth : 8 bits
Scan type : Progressive
Bits/(Pixel*Frame) : 0.285
Stream size : 3.85 GiB (76%)
Writing library : x264 core 56 svn-677
Encoding settings : cabac=1 / ref=5 / deblock=1:0:0 / analyse=0x3:0x113 / me=umh / subme=7 / brdo=1 / mixed_ref=1 / me_range=16 / chroma_me=1 / trellis=1 / 8x8dct=1 / cqm=0 / deadzone=21,11 / chroma_qp_offset=0 / threads=6 / nr=0 / decimate=1 / mbaff=0 / bframes=3 / b_pyramid=1 / b_adapt=1 / b_bias=0 / direct=1 / wpredb=1 / bime=1 / keyint=250 / keyint_min=25 / scenecut=40(pre) / rc=2pass / bitrate=4760 / ratetol=1.0 / rceq='blurCplx^(1-qComp)' / qcomp=0.60 / qpmin=10 / qpmax=51 / qpstep=4 / cplxblur=20.0 / qblur=0.5 / ip_ratio=1.40 / pb_ratio=1.30
Language : English
Default : Yes
Forced : No

Audio #1
ID : 2
Format : AC-3
Format/Info : Audio Coding 3
Mode extension : CM (complete main)
Format settings, Endianness : Big
Codec ID : A_AC3
Duration : 1h 55mn
Bit rate mode : Constant
Bit rate : 192 Kbps
Channel(s) : 2 channels
Channel positions : Front: L R
Sampling rate : 44.1 KHz
Frame rate : 28.711 fps (1536 spf)
Compression mode : Lossy
Stream size : 159 MiB (3%)
Language : Italian
Default : No
Forced : No

Audio #2
ID : 3
Format : AC-3
Format/Info : Audio Coding 3
Mode extension : CM (complete main)
Format settings, Endianness : Big
Codec ID : A_AC3
Duration : 1h 55mn
Bit rate mode : Constant
Bit rate : 640 Kbps
Channel(s) : 6 channels
Channel positions : Front: L C R, Side: L R, LFE
Sampling rate : 48.0 KHz
Frame rate : 31.250 fps (1536 spf)
Compression mode : Lossy
Stream size : 530 MiB (10%)
Title : AC3, 6ch 640kbps
Language : Russian
Default : Yes
Forced : No

Audio #3
ID : 4
Format : AC-3
Format/Info : Audio Coding 3
Mode extension : CM (complete main)
Format settings, Endianness : Big
Codec ID : A_AC3
Duration : 1h 55mn
Bit rate mode : Constant
Bit rate : 640 Kbps
Channel(s) : 6 channels
Channel positions : Front: L C R, Side: L R, LFE
Sampling rate : 48.0 KHz
Frame rate : 31.250 fps (1536 spf)
Compression mode : Lossy
Stream size : 530 MiB (10%)
Title : AC3, 6ch 640kbps
Language : English
Default : No
Forced : No

Immagini

Getaway (1994), [Mux 720p – H264 – Ita Eng Rus Ac3 – Sub Eng]
Getaway (1994), [Mux 720p – H264 – Ita Eng Rus Ac3 – Sub Eng]
Getaway (1994), [Mux 720p – H264 – Ita Eng Rus Ac3 – Sub Eng]
Getaway (1994), [Mux 720p – H264 – Ita Eng Rus Ac3 – Sub Eng]
Getaway (1994), [Mux 720p – H264 – Ita Eng Rus Ac3 – Sub Eng]
Getaway (1994), [Mux 720p – H264 – Ita Eng Rus Ac3 – Sub Eng]
Getaway (1994), [Mux 720p – H264 – Ita Eng Rus Ac3 – Sub Eng]
Getaway (1994), [Mux 720p – H264 – Ita Eng Rus Ac3 – Sub Eng]
Getaway (1994), [Mux 720p – H264 – Ita Eng Rus Ac3 – Sub Eng]
Getaway (1994), [Mux 720p – H264 – Ita Eng Rus Ac3 – Sub Eng]
Getaway (1994), [Mux 720p – H264 – Ita Eng Rus Ac3 – Sub Eng]
Getaway (1994), [Mux 720p – H264 – Ita Eng Rus Ac3 – Sub Eng]
Getaway (1994), [Mux 720p – H264 – Ita Eng Rus Ac3 – Sub Eng]
Getaway (1994), [Mux 720p – H264 – Ita Eng Rus Ac3 – Sub Eng]
Getaway (1994), [Mux 720p – H264 – Ita Eng Rus Ac3 – Sub Eng]
Getaway (1994), [Mux 720p – H264 – Ita Eng Rus Ac3 – Sub Eng]

Trackers

http://tracker.publicbt.com:80/
http://tracker.istole.it:80/
http://tracker.tntvillage.scambioetico.org:2710/scrape
http://open.demonii.com:1337/scrape
http://tracker.coppersurfer.tk:6969/scrape
http://tracker.openbittorrent.com/scrape