Download | Chronicle of Life | Streets of Ne (2009)








Info

I Bastardi Di Pizzofalcone – STAGIONE NR. 1 – PUNTATA N. 04/06

user posted image

.: Scheda della serie :.
basato sul romanzo di Maurizio De Giovanni
ideatore: Maurizio De Giovanni
regista: Carlo Carlei

Titolo originale I bastardi di Pizzofalcone
Paese Italia
Anno 2017 – in produzione
Formato serie TV
Genere poliziesco
Stagioni 1
Episodi 6
Durata 100 min (episodio)
Lingua originale italiano

Cast:
Alessandro Gassman: ispettore Giuseppe Lojacono
Carolina Crescentini: PM Laura Piras
Massimiliano Gallo: vice questore Luigi Palma
Riccardo Zinna: vice questore Di Vincenzo
Tosca D’Aquino: vice-sovr. Ottavia Calabrese
Antonio Folletto: ag.scelto Marco Aragona
Simona Tabasco: agente Alessandra Di Nardo
Gianfelice Imparato: sostit.comm. Giorgio Pisanelli
Gennaro Silvestro: assist.capo Francesco Romano
Francesco Guzzo: agente Giovanni Guida
Luigi Petrucci: questore Rosario Ardito
Gioia Spaziani: Letizia
Serena Iansiti: Rosaria Martone
Mariano Rigillo: generale Di Nardo
Imma Piro: Dora Di Nardo
Giovanni Esposito: frate Renato
Miriam Candurro: fidanzata di Romano
Francesco Paolantoni: notaio Arturo Fusco
Valeria Vaiano: Carolina Rea

.: Info :.
I bastardi di Pizzofalcone è una serie televisiva italiana, diretta da Carlo Carlei, trasmessa dal 9 gennaio 2017 su Rai 1.

La serie è tratta dall’omonimo romanzo I bastardi di Pizzofalcone di Maurizio De Giovanni.

La serie Tv è incentrata sulla storia di poliziotti mandati tutti nella caserma di Pizzofalcone perché alcuni hanno avuto dei problemi sul lavoro (tre di questi) altri due perché stanno lì da sempre e un altro perché è raccomandato. All’inizio devono solo fare normale amministrazione poi diventano grazie alla risoluzione, da parte di essi, di un omicidio, una caserma a tutti gli effetti.

Info File

General
Complete name : I.Bastardi.Di.Pizzofalcone.S01e01.I.Bastardi.Di.Pizzofalcone.ITA.x264-sp_54321.mp4
Format : MPEG-4
Format profile : Base Media
Codec ID : isom
File size : 1.35 GiB
Duration : 1h 41mn
Overall bit rate mode : Variable
Overall bit rate : 1 899 Kbps
Encoded date : UTC 2017-01-09 22:51:36
Tagged date : UTC 2017-01-09 22:51:36

Video
ID : 1
Format : AVC
Format/Info : Advanced Video Codec
Format profile : [email protected]
Format settings, CABAC : Yes
Format settings, ReFrames : 4 frames
Codec ID : avc1
Codec ID/Info : Advanced Video Coding
Duration : 1h 41mn
Source duration : 1h 41mn
Bit rate mode : Constant
Bit rate : 1 800 Kbps
Maximum bit rate : 5 223 Kbps
Width : 928 pixels
Height : 522 pixels
Display aspect ratio : 16:9
Frame rate mode : Constant
Frame rate : 25.000 fps
Color space : YUV
Chroma subsampling : 4:2:0
Bit depth : 8 bits
Scan type : Progressive
Bits/(Pixel*Frame) : 0.149
Stream size : 1.22 GiB (91%)
Source stream size : 1.28 GiB (95%)
Tagged date : UTC 2017-01-09 22:51:47

Audio
ID : 2
Format : AAC
Format/Info : Advanced Audio Codec
Format profile : LC
Codec ID : 40
Duration : 1h 41mn
Bit rate mode : Variable
Bit rate : 93.6 Kbps
Maximum bit rate : 105 Kbps
Channel(s) : 2 channels
Channel positions : Front: L R
Sampling rate : 44.1 KHz
Compression mode : Lossy
Stream size : 68.1 MiB (5%)
Tagged date : UTC 2017-01-09 22:51:47

Trackers

http://tracker.leechers-paradise.org:6969/scrape
http://tracker.tntvillage.scambioetico.org:2710/scrape
http://tracker.tiny-vps.com:6969/scrape
http://tracker.mg64.net:2710/scrape
http://tracker.openbittorrent.com/scrape
http://tracker.coppersurfer.tk:6969/scrape
http://IPv6.leechers-paradise.org:6969/scrape
http://tracker.internetwarriors.net:1337/scrape