Регистрация | Kalifornia | Watch Tv On Your Computer Watch Tv Shows








Info

The Running Man


6.6
IMDB: 6.6/10 116,998 votes

Durata: 101 min

Released:

Anno: 13 Nov 1987

Direttore:

Premi: 1 win & 3 nominations.

Budget: 27000000$

Incassi: 38122105$

Stato: Released

Paese: USA

Cast:




Ambientato nella Los Angels del 2019, il film si ispira ad un romanzo che Stephen King ha scritto sotto lo pseudonimo di Richard Bachman. Il soggetto e il libro rimandano in maniera evidente a due racconti di Sheckley, “Il premio del pericolo” e “La settima vittima” (quest’ultimo adattato per lo schermo da Elio Petri nel 1965 col titolo La decima vittima), ed anche a Rollerball che già avevano avanzato (e con più convinzione) l’ipotesi di un regime totalitario fondato sull’esasperato uso strumentale dei mezzi di comunicazione di massa.

 

Trailer


Upload on Youtube

Info File

Video
ID : 0
Format : MPEG-4 Visual
Format profile : Advanced [email protected]
Format settings, BVOP : Yes
Format settings, QPel : No
Format settings, GMC : No warppoints
Format settings, Matrix : Default (MPEG)
Codec ID : XVID
Codec ID/Hint : XviD
Duration : 1h 40mn
Bit rate : 1 382 Kbps
Width : 672 pixels
Height : 368 pixels
Display aspect ratio : 16:9
Frame rate : 23.976 fps
Color space : YUV
Chroma subsampling : 4:2:0
Bit depth : 8 bits
Scan type : Progressive
Bits/(Pixel*Frame) : 0.233
Stream size : 995 MiB (67%)
Writing library : XviD 1.3.0.dev55

Audio #1
ID : 1
Format : AC-3
Format/Info : Audio Coding 3
Mode extension : CM (complete main)
Codec ID : 2000
Duration : 1h 40mn
Bit rate mode : Constant
Bit rate : 224 Kbps
Channel(s) : 2 channels
Channel positions : Front: L R
Sampling rate : 48.0 KHz
Bit depth : 16 bits
Stream size : 161 MiB (11%)
Alignment : Split accross interleaves
Interleave, duration : 42 ms (1.00 video frame)
Interleave, preload duration : 500 ms

Immagini

L’Implacabile – The Running Man (1987), [XviD – Ita Eng Ac3 – Sub Ita]
L’Implacabile – The Running Man (1987), [XviD – Ita Eng Ac3 – Sub Ita]
L’Implacabile – The Running Man (1987), [XviD – Ita Eng Ac3 – Sub Ita]
L’Implacabile – The Running Man (1987), [XviD – Ita Eng Ac3 – Sub Ita]
L’Implacabile – The Running Man (1987), [XviD – Ita Eng Ac3 – Sub Ita]
L’Implacabile – The Running Man (1987), [XviD – Ita Eng Ac3 – Sub Ita]
L’Implacabile – The Running Man (1987), [XviD – Ita Eng Ac3 – Sub Ita]
L’Implacabile – The Running Man (1987), [XviD – Ita Eng Ac3 – Sub Ita]
L’Implacabile – The Running Man (1987), [XviD – Ita Eng Ac3 – Sub Ita]
L’Implacabile – The Running Man (1987), [XviD – Ita Eng Ac3 – Sub Ita]

Trackers

http://tracker.istole.it:80/
http://tracker.publicbt.com:80/
http://tracker.tntvillage.scambioetico.org:2710/scrape
http://open.demonii.com:1337/scrape
http://tracker.coppersurfer.tk:6969/scrape
http://tracker.openbittorrent.com/scrape