MasterChef US S08E19 720p WEB h264-TBS[eztv] mkv | The Ghoul A homicide detective goes undercover as a patient to investigate a psychotherapist he believes is linked to a strange double murder. As his therapy sessions continue the line between fantasy and reality begins to blur. | Doc Martin








Info

The Gate


6.0
IMDB: 6.0/10 10,886 votes

Durata: 85 min

Released:

Anno: 15 May 1987

Direttore:

Premi: 2 wins & 2 nominations.

Budget: 2500000$

Stato: Released

Paese: Canada, USA

Cast:




Glen e Al sono due amici, uniti dalla solitudine familiare e dalla passione per scienze occulte e rock. Riconnettendo elementi disparati, indovinano che i demoni sono al lavoro per impadronirsi della casa di Glen……

 

Trailer


Upload on Youtube

Info File

Video
ID : 0
Format : MPEG-4 Visual
Format profile : [email protected]
Format settings, BVOP : No
Format settings, QPel : No
Format settings, GMC : No warppoints
Format settings, Matrix : Custom
Codec ID : XVID
Codec ID/Hint : XviD
Duration : 1h 22mn
Bit rate : 2 237 Kbps
Width : 720 pixels
Height : 416 pixels
Display aspect ratio : 16:9
Frame rate : 25.000 fps
Color space : YUV
Chroma subsampling : 4:2:0
Bit depth : 8 bits
Scan type : Progressive
Compression mode : Lossy
Bits/(Pixel*Frame) : 0.299
Stream size : 1.29 GiB (85%)
Writing library : XviD 1.0.3 (UTC 2004-12-20)

Audio #1
ID : 1
Format : AC-3
Format/Info : Audio Coding 3
Mode extension : CM (complete main)
Codec ID : 2000
Duration : 1h 22mn
Bit rate mode : Constant
Bit rate : 192 Kbps
Channel(s) : 2 channels
Channel positions : Front: L R
Sampling rate : 48.0 KHz
Bit depth : 16 bits
Compression mode : Lossy
Stream size : 113 MiB (7%)
Alignment : Split accross interleaves
Interleave, duration : 96 ms (2.40 video frames)
Interleave, preload duration : 96 ms
Language : Italian

Immagini

Non Aprite Quel Cancello – The Gate (1987) Takács, [XviD – Ita Eng Ac3 – Sub Ita]
Non Aprite Quel Cancello – The Gate (1987) Takács, [XviD – Ita Eng Ac3 – Sub Ita]
Non Aprite Quel Cancello – The Gate (1987) Takács, [XviD – Ita Eng Ac3 – Sub Ita]
Non Aprite Quel Cancello – The Gate (1987) Takács, [XviD – Ita Eng Ac3 – Sub Ita]

Trackers

http://tracker.publicbt.com:80/
http://tracker.istole.it:80/
http://tracker.tntvillage.scambioetico.org:2710/scrape
http://open.demonii.com:1337/scrape
http://tracker.coppersurfer.tk:6969/scrape
http://tracker.openbittorrent.com/scrape