Download: Katy Perry - Witness (Audio).mp3 | 9. Nick Jonas - Jealous Gospel Version | Games Hacks ( PC/PS/Xbox)

Sonatine  (5.12 Gb)

Likes(0)Dislikes(0)
seeders: 1
leechers: 3








Info

Murakawa, braccio destro di un boss, cade in trappola: è inviato in missione con i suoi uomini per fare da bersaglio ai killer nemici. Al termine di uno stillicidio di morti, isolato su una spiaggia, innamorato di una fanciulla, va incontro alle estreme conseguenze. Uno yakuza alla ricerca della “sua” morte.
—–

Trailer


Upload on Youtube

Info File

Video
ID : 224 (0xE0)
Format : MPEG Video
Format version : Version 2
Format profile : [email protected]
Format settings, BVOP : Yes
Format settings, Matrix : Default
Format settings, GOP : M=3, N=12
Duration : 18mn 51s
Bit rate mode : Variable
Bit rate : 6 990 Kbps
Nominal bit rate : 8 000 Kbps
Width : 720 pixels
Height : 576 pixels
Display aspect ratio : 16:9
Frame rate : 25.000 fps
Standard : PAL
Color space : YUV
Chroma subsampling : 4:2:0
Bit depth : 8 bits
Scan type : Interlaced
Scan order : Top Field First
Bits/(Pixel*Frame) : 0.674
Stream size : 943 MiB (92%)

Audio #1
ID : 128 (0x80)
Format : AC-3
Format/Info : Audio Coding 3
Mode extension : CM (complete main)
Duration : 18mn 51s
Bit rate mode : Constant
Bit rate : 224 Kbps
Channel(s) : 2 channels
Channel positions : Front: L R
Sampling rate : 48.0 KHz
Bit depth : 16 bits
Video delay : -240ms
Stream size : 30.2 MiB (3%

Immagini

Sonatine
Sonatine

Trackers

http://tracker.istole.it:80/
http://tracker.tntvillage.scambioetico.org:2710/scrape
http://tracker.publicbt.com:80/
http://open.demonii.com:1337/scrape
http://tracker.coppersurfer.tk:6969/scrape
http://tracker.openbittorrent.com/scrape