Walk On Water season 03 episode 15 | Afton Jillian | Sudáfrica




    1. Timeless.2016.1x01.L.Hndenburg.ITA-ENG.1080p.WEBMux.DD5.1.x264-NovaRip.mkv
      1.78 Gb
    2. Timeless.2016.1x02.L.Assassino.Di.Abraham.Lincoln.ITA-ENG.1080p.WEBMux.DD5.1.x264-NovaRip.mkv
      1.77 Gb
    3. Timeless.2016.1x03.La.Bomba.A.ITA-ENG.1080p.WEBMux.DD5.1.x264-NovaRip.mkv
      1.77 Gb
    4. Timeless.2016.1x04.Il.Castello.Di.Varlar.ITA-ENG.1080p.WEBMux.DD5.1.x264-NovaRip.mkv
      1.77 Gb
    5. Timeless.2016.1x05.Fort.Alamo.ITA-ENG.1080p.WEBMux.DD5.1.x264-NovaRip.mkv
      1.77 Gb
    6. Timeless.2016.1x06.Il.Nastro.Del.Watergate.ITA-ENG.1080p.WEBMux.DD5.1.x264-NovaRip.mkv
      1.77 Gb
    7. Timeless.2016.1x07.Fermi.Nel.Passato.ITA-ENG.1080p.WEBMux.DD5.1.x264-NovaRip.mkv
      1.77 Gb
    8. Timeless.2016.1x08.Missione.Apollo.11.ITA-ENG.1080p.WEBMux.DD5.1.x264-NovaRip.mkv
      1.77 Gb
    9. Timeless.2016.1x09.L.Ultima.Corsa.Di.Bonnie.E.Clyde.ITA-ENG.1080p.WEBMux.DD5.1.x264-NovaRip.mkv
      1.77 Gb
    10. Timeless.2016.1x10.La.Guerra.D.Indipendenza.ITA-ENG.1080p.WEBMux.DD5.1.x264-NovaRip.mkv
      1.77 Gb
    11. Timeless.2016.1x11.Tra.Magia.E.Realta.ITA-ENG.1080p.WEBMux.DD5.1.x264-NovaRip.mkv
      1.77 Gb
    12. Timeless.2016.1x12.Jesse.James.E.Il.Vecchio.West.ITA-ENG.1080p.WEBMux.DD5.1.x264-NovaRip.mkv
      1.77 Gb
    13. Timeless.2016.1x13.Un.Tuffo.Negli.Anni.80.ITA-ENG.1080p.WEBMux.DD5.1.x264-NovaRip.mkv
      1.77 Gb
    14. Timeless.2016.1x14.La.Generazione.Perduta.ITA-ENG.1080p.WEBMux.DD5.1.x264-NovaRip.mkv
      1.77 Gb
    15. Timeless.2016.1x15.Nemico.Pubblico.N.1.ITA-ENG.1080p.WEBMux.DD5.1.x264-NovaRip.mkv
      1.77 Gb
    16. Timeless.2016.1x16.Sangue.Nobile.ITA-ENG.1080p.WEBMux.DD5.1.x264-NovaRip.mkv
      1.77 Gb




Info

user posted image

.: Scheda della serie :.
Ideatori Eric Kripke, Shawn Ryan

Titolo originale Timeless
Paese Stati Uniti d’America
Anno 2016 – in produzione
Formato serie TV
Genere azione, fantascienza
Stagioni 1
Episodi 16
Durata 45 min (episodio)
Lingua originale inglese

Cast:
Abigail Spencer: Lucy Preston
Matt Lanter: Wyatt Logan
Malcolm Barrett: Rufus Carlin
Sakina Jaffrey: Denise Christopher
Paterson Joseph: Connor Mason
Claudia Doumit: Jiya
Goran Višnjić: Garcia Flynn

Doppiatori Italiani:
Valentina Mari: Lucy Preston
Gabriele Lopez: Wyatt Logan
Paolo Vivio: Rufus Carlin
Stefano Benassi: Garcia Flynn

.: Info :.
Timeless è una serie televisiva statunitense trasmessa dal 3 ottobre 2016 dall’emittente NBC.

Il misterioso criminale Garcia Flynn si impossessa di una macchina del tempo con l’intento di modificare gli eventi del passato e distruggere così gli Stati Uniti d’America. Viene formato un team di esperti, composto dalla professoressa di storia Lucy Preston, il soldato Wyatt Logan e lo scienziato Rufus, che a loro volta viaggerà indietro nel tempo per catturare Flynn.

Info File

General
Unique ID : 164344297473277362364826176241677862674 (0x7BA38F745CE6912413179A450C838712)
Complete name : Timeless.2016.1x02.L.Assassino.Di.Abraham.Lincoln.ITA-ENG.1080p.WEBMux.DD5.1.x264-NovaRip.mkv
Format : Matroska
Format version : Version 2
File size : 1.77 GiB
Duration : 41 min
Overall bit rate : 6 141 kb/s
Encoded date : UTC 2016-12-11 21:53:10
Writing application : mkvmerge v8.5.2 ('Crosses') 64bit
Writing library : libebml v1.3.3 + libmatroska v1.4.4

Video
ID : 1
Format : AVC
Format/Info : Advanced Video Codec
Format profile : [email protected]
Format settings, CABAC : Yes
Format settings, ReFrames : 4 frames
Codec ID : V_MPEG4/ISO/AVC
Duration : 41 min
Bit rate : 5 152 kb/s
Width : 1 920 pixels
Height : 1 080 pixels
Display aspect ratio : 16:9
Frame rate mode : Constant
Frame rate : 25.000 FPS
Original frame rate : 23.976 (24000/1001) FPS
Color space : YUV
Chroma subsampling : 4:2:0
Bit depth : 8 bits
Scan type : Progressive
Bits/(Pixel*Frame) : 0.099
Stream size : 1.55 GiB (87%)
Writing library : x264 core 148 r2705 3f5ed56
Encoding settings : cabac=1 / ref=4 / deblock=1:-2:-2 / analyse=0x3:0x133 / me=umh / subme=7 / psy=1 / psy_rd=1.00:0.00 / mixed_ref=1 / me_range=16 / chroma_me=1 / trellis=2 / 8x8dct=1 / cqm=0 / deadzone=21,11 / fast_pskip=0 / chroma_qp_offset=-2 / threads=6 / lookahead_threads=1 / sliced_threads=0 / nr=0 / decimate=1 / interlaced=0 / bluray_compat=0 / constrained_intra=0 / bframes=5 / b_pyramid=2 / b_adapt=2 / b_bias=0 / direct=3 / weightb=1 / open_gop=0 / weightp=2 / keyint=250 / keyint_min=23 / scenecut=40 / intra_refresh=0 / rc_lookahead=40 / rc=2pass / mbtree=1 / bitrate=5152 / ratetol=1.0 / qcomp=0.60 / qpmin=0 / qpmax=69 / qpstep=4 / cplxblur=20.0 / qblur=0.5 / ip_ratio=1.40 / aq=1:1.00
Language : English
Default : Yes
Forced : Yes

Audio #1
ID : 2
Format : AC-3
Format/Info : Audio Coding 3
Mode extension : CM (complete main)
Format settings, Endianness : Big
Codec ID : A_AC3
Duration : 41 min
Bit rate mode : Constant
Bit rate : 384 kb/s
Channel(s) : 6 channels
Channel positions : Front: L C R, Side: L R, LFE
Sampling rate : 48.0 kHz
Frame rate : 31.250 FPS (1536 spf)
Compression mode : Lossy
Stream size : 113 MiB (6%)
Title : ITA
Language : Italian
Default : Yes
Forced : Yes

Audio #2
ID : 3
Format : AC-3
Format/Info : Audio Coding 3
Mode extension : CM (complete main)
Format settings, Endianness : Big
Codec ID : A_AC3
Duration : 41 min
Bit rate mode : Constant
Bit rate : 384 kb/s
Channel(s) : 6 channels
Channel positions : Front: L C R, Side: L R, LFE
Sampling rate : 48.0 kHz
Frame rate : 31.250 FPS (1536 spf)
Compression mode : Lossy
Stream size : 113 MiB (6%)
Title : ENG
Language : English
Default : No
Forced : No

Text #1
ID : 4
Format : UTF-8
Codec ID : S_TEXT/UTF8
Codec ID/Info : UTF-8 Plain Text
Duration : 36 min
Bit rate : 0 b/s
Count of elements : 2
Stream size : 41.0 Bytes (0%)
Title : ITA - Forced
Language : Italian
Default : Yes
Forced : Yes

Text #2
ID : 5
Format : UTF-8
Codec ID : S_TEXT/UTF8
Codec ID/Info : UTF-8 Plain Text
Duration : 40 min
Bit rate : 79 b/s
Count of elements : 667
Stream size : 23.8 KiB (0%)
Title : ITA
Language : Italian
Default : No
Forced : No

Text #3
ID : 6
Format : UTF-8
Codec ID : S_TEXT/UTF8
Codec ID/Info : UTF-8 Plain Text
Duration : 40 min
Bit rate : 67 b/s
Count of elements : 694
Stream size : 20.2 KiB (0%)
Title : ENG
Language : English
Default : No
Forced : No

Trackers

http://tracker.leechers-paradise.org:6969/scrape
http://tracker.tntvillage.scambioetico.org:2710/scrape
http://tracker.tiny-vps.com:6969/scrape
http://tracker.internetwarriors.net:1337/scrape
http://tracker.mg64.net:2710/scrape
http://tracker.coppersurfer.tk:6969/scrape
http://IPv6.leechers-paradise.org:6969/scrape
http://tracker.openbittorrent.com/scrape