Akuma no Riddle | American Pastoral (2016) | Joe Flynn




    1. Timeless.2016.1x01.L.Hndenburg.ITA-ENG.576p.WEBMux.DD5.1.x264-sp_54321.mkv
      801.34 Mb
    2. Timeless.2016.1x02.L.Assassino.Di.Abraham.Lincoln.ITA-ENG.576p.WEBMux.DD5.1.x264-sp_54321.mkv
      584.74 Mb
    3. Timeless.2016.1x03.La.Bomba.A.ITA-ENG.576p.WEBMux.DD5.1.x264-sp_54321.mkv
      593.19 Mb
    4. Timeless.2016.1x04.Il.Castello.Di.Varlar.ITA-ENG.576p.WEBMux.DD5.1.x264-sp_54321.mkv
      602.64 Mb
    5. Timeless.2016.1x05.Fort.Alamo.ITA-ENG.576p.WEBMux.DD5.1.x264-sp_54321.mkv
      625.46 Mb
    6. Timeless.2016.1x06.Il.Nastro.Del.Watergate.ITA-ENG.576p.WEBMux.DD5.1.x264-sp_54321.mkv
      632.72 Mb
    7. Timeless.2016.1x07.Fermi.Nel.Passato.ITA-ENG.576p.WEBMux.DD5.1.x264-sp_54321.mkv
      687.95 Mb
    8. Timeless.2016.1x08.Missione.Apollo.11.ITA-ENG.576p.WEBMux.DD5.1.x264-sp_54321.mkv
      577.31 Mb
    9. Timeless.2016.1x09.L.Ultima.Corsa.Di.Bonnie.E.Clyde.ITA-ENG.576p.WEBMux.DD5.1.x264-sp_54321.mkv
      573.77 Mb
    10. Timeless.2016.1x10.La.Guerra.D.Indipendenza.ITA-ENG.576p.WEBMux.DD5.1.x264-sp_54321.mkv
      616.3 Mb
    11. Timeless.2016.1x11.Tra.Magia.E.Realta.ITA-ENG.576p.WEBMux.DD5.1.x264-sp_54321.mkv
      537.52 Mb
    12. Timeless.2016.1x12.Jesse.James.E.Il.Vecchio.West.ITA-ENG.576p.WEBMux.DD5.1.x264-sp_54321.mkv
      592.58 Mb
    13. Timeless.2016.1x13.Un.Tuffo.Negli.Anni.80.ITA-ENG.576p.WEBMux.DD5.1.x264-sp_54321.mkv
      573.63 Mb
    14. Timeless.2016.1x14.La.Generazione.Perduta.ITA-ENG.576p.WEBMux.DD5.1.x264-sp_54321.mkv
      519.87 Mb
    15. Timeless.2016.1x15.Nemico.Pubblico.N.1.ITA-ENG.576p.WEBMux.DD5.1.x264-sp_54321.mkv
      531.85 Mb
    16. Timeless.2016.1x16.Sangue.Nobile.ITA-ENG.576p.WEBMux.DD5.1.x264-sp_54321.mkv
      511.19 Mb




Info

user posted image

.: Scheda della serie :.
Ideatori Eric Kripke, Shawn Ryan

Titolo originale Timeless
Paese Stati Uniti d’America
Anno 2016 – in produzione
Formato serie TV
Genere azione, fantascienza
Stagioni 1
Episodi 16
Durata 45 min (episodio)
Lingua originale inglese

Cast:
Abigail Spencer: Lucy Preston
Matt Lanter: Wyatt Logan
Malcolm Barrett: Rufus Carlin
Sakina Jaffrey: Denise Christopher
Paterson Joseph: Connor Mason
Claudia Doumit: Jiya
Goran Višnjić: Garcia Flynn

Doppiatori Italiani:
Valentina Mari: Lucy Preston
Gabriele Lopez: Wyatt Logan
Paolo Vivio: Rufus Carlin
Stefano Benassi: Garcia Flynn

.: Info :.
Timeless è una serie televisiva statunitense trasmessa dal 3 ottobre 2016 dall’emittente NBC.

Il misterioso criminale Garcia Flynn si impossessa di una macchina del tempo con l’intento di modificare gli eventi del passato e distruggere così gli Stati Uniti d’America. Viene formato un team di esperti, composto dalla professoressa di storia Lucy Preston, il soldato Wyatt Logan e lo scienziato Rufus, che a loro volta viaggerà indietro nel tempo per catturare Flynn.

Info File

General
Unique ID : 145421707744485389658627340801842524938 (0x6D6733C0295ECB0C0D3B37373C16B30A)
Complete name : Timeless.2016.1x01-16.ITA.ENG.576p-sp_54321/Timeless.2016.1x01.L.Hndenburg.ITA-ENG.576p.WEBMux.DD5.1.x264-sp_54321.mkv
Format : Matroska
Format version : Version 4 / Version 2
File size : 801 MiB
Duration : 43mn 12s
Overall bit rate : 2 593 Kbps
Writing application : Lavf57.41.100
Writing library : Lavf57.41.100

Video
ID : 1
Format : AVC
Format/Info : Advanced Video Codec
Format profile : [email protected]
Format settings, CABAC : Yes
Format settings, ReFrames : 14 frames
Codec ID : V_MPEG4/ISO/AVC
Duration : 43mn 12s
Bit rate : 1 774 Kbps
Width : 1 024 pixels
Height : 576 pixels
Display aspect ratio : 16:9
Frame rate mode : Constant
Frame rate : 25.000 fps
Color space : YUV
Chroma subsampling : 4:2:0
Bit depth : 8 bits
Scan type : Progressive
Bits/(Pixel*Frame) : 0.120
Stream size : 548 MiB (68%)
Writing library : x264 core 148 r292 72d53ab
Encoding settings : cabac=1 / ref=14 / deblock=1:0:0 / analyse=0x1:0x131 / me=umh / subme=10 / psy=1 / psy_rd=1.00:0.00 / mixed_ref=1 / me_range=24 / chroma_me=1 / trellis=2 / 8x8dct=0 / cqm=0 / deadzone=21,11 / fast_pskip=1 / chroma_qp_offset=-2 / threads=4 / lookahead_threads=1 / sliced_threads=0 / nr=0 / decimate=1 / interlaced=0 / bluray_compat=0 / constrained_intra=0 / bframes=8 / b_pyramid=2 / b_adapt=2 / b_bias=0 / direct=3 / weightb=1 / open_gop=0 / weightp=2 / keyint=250 / keyint_min=25 / scenecut=40 / intra_refresh=0 / rc_lookahead=60 / rc=crf / mbtree=1 / crf=18.0 / qcomp=0.60 / qpmin=0 / qpmax=69 / qpstep=4 / ip_ratio=1.40 / aq=1:1.00
Language : English
Default : Yes
Forced : Yes
DURATION : 00:43:12.000000000
NUMBER_OF_FRAMES : 64800
NUMBER_OF_BYTES : 1657627577
_STATISTICS_WRITING_APP : mkvmerge v8.5.2 ('Crosses') 64bit
_STATISTICS_WRITING_DATE_UTC : 2016-12-11 21:24:09
_STATISTICS_TAGS : BPS DURATION NUMBER_OF_FRAMES NUMBER_OF_BYTES

Audio #1
ID : 2
Format : AC-3
Format/Info : Audio Coding 3
Mode extension : CM (complete main)
Format settings, Endianness : Big
Codec ID : A_AC3
Duration : 43mn 12s
Bit rate mode : Constant
Bit rate : 384 Kbps
Channel(s) : 6 channels
Channel positions : Front: L C R, Side: L R, LFE
Sampling rate : 48.0 KHz
Bit depth : 16 bits
Compression mode : Lossy
Stream size : 119 MiB (15%)
Title : ITA
Language : Italian
Default : Yes
Forced : Yes
DURATION : 00:43:12.128000000
NUMBER_OF_FRAMES : 81004
NUMBER_OF_BYTES : 124422144
_STATISTICS_WRITING_APP : mkvmerge v8.5.2 ('Crosses') 64bit
_STATISTICS_WRITING_DATE_UTC : 2016-12-11 21:24:09
_STATISTICS_TAGS : BPS DURATION NUMBER_OF_FRAMES NUMBER_OF_BYTES

Audio #2
ID : 3
Format : AC-3
Format/Info : Audio Coding 3
Mode extension : CM (complete main)
Format settings, Endianness : Big
Codec ID : A_AC3
Duration : 43mn 12s
Bit rate mode : Constant
Bit rate : 384 Kbps
Channel(s) : 6 channels
Channel positions : Front: L C R, Side: L R, LFE
Sampling rate : 48.0 KHz
Bit depth : 16 bits
Compression mode : Lossy
Stream size : 119 MiB (15%)
Title : ENG
Language : English
Default : No
Forced : No
DURATION : 00:43:12.128000000
NUMBER_OF_FRAMES : 81004
NUMBER_OF_BYTES : 124422144
_STATISTICS_WRITING_APP : mkvmerge v8.5.2 ('Crosses') 64bit
_STATISTICS_WRITING_DATE_UTC : 2016-12-11 21:24:09
_STATISTICS_TAGS : BPS DURATION NUMBER_OF_FRAMES NUMBER_OF_BYTES

Text #1
ID : 4
Format : UTF-8
Codec ID : S_TEXT/UTF8
Codec ID/Info : UTF-8 Plain Text
Title : ITA - Forced
Language : Italian
Default : Yes
Forced : Yes
DURATION : 00:40:49.787000000
NUMBER_OF_FRAMES : 5
NUMBER_OF_BYTES : 174
_STATISTICS_WRITING_APP : mkvmerge v8.5.2 ('Crosses') 64bit
_STATISTICS_WRITING_DATE_UTC : 2016-12-11 21:24:09
_STATISTICS_TAGS : BPS DURATION NUMBER_OF_FRAMES NUMBER_OF_BYTES

Text #2
ID : 5
Format : UTF-8
Codec ID : S_TEXT/UTF8
Codec ID/Info : UTF-8 Plain Text
Title : ITA
Language : Italian
Default : No
Forced : No
DURATION : 00:42:41.518000000
NUMBER_OF_FRAMES : 648
NUMBER_OF_BYTES : 24413
_STATISTICS_WRITING_APP : mkvmerge v8.5.2 ('Crosses') 64bit
_STATISTICS_WRITING_DATE_UTC : 2016-12-11 21:24:09
_STATISTICS_TAGS : BPS DURATION NUMBER_OF_FRAMES NUMBER_OF_BYTES

Text #3
ID : 6
Format : UTF-8
Codec ID : S_TEXT/UTF8
Codec ID/Info : UTF-8 Plain Text
Title : ENG
Language : English
Default : No
Forced : No
DURATION : 00:42:34.493000000
NUMBER_OF_FRAMES : 812
NUMBER_OF_BYTES : 22076
_STATISTICS_WRITING_APP : mkvmerge v8.5.2 ('Crosses') 64bit
_STATISTICS_WRITING_DATE_UTC : 2016-12-11 21:24:09
_STATISTICS_TAGS : BPS DURATION NUMBER_OF_FRAMES NUMBER_OF_BYTES

Trackers

http://tracker.leechers-paradise.org:6969/scrape
http://tracker.tntvillage.scambioetico.org:2710/scrape
http://tracker.tiny-vps.com:6969/scrape
http://tracker.internetwarriors.net:1337/scrape
http://tracker.mg64.net:2710/scrape
http://tracker.coppersurfer.tk:6969/scrape
http://IPv6.leechers-paradise.org:6969/scrape
http://tracker.openbittorrent.com/scrape