Скачать Torrent Бесплатно... | Syriana 2005 Drama/Thriller DvDrip aXXo Swesub prien | Download Movie








Info

Wyatt Earp


6.6
IMDB: 6.6/10 36,820 votes

Durata: 191 min

Released:

Anno: 24 Jun 1994

Direttore:

Premi: Nominated for 1 Oscar. Another 3 wins & 4 nominations.

Budget: 63000000$

Incassi: 25052000$

Stato: Released

Paese: USA

Cast:





Wyatt è un ragazzo che vuole studiare legge. Diventato adulto, s’innamora di una ragazza, si sposano, ma essa muore di tifo. Wyatt viene arrestato per aver rubato dei cavalli. Suo padre lo libera e dopo diventa cacciatore di bisonti. Poi mentre si trova in un saloon, un uomo ubriaco inizia a sparare in un locale e il vicesceriffo non fa niente, così interviene Wyatt che dopo viene nominato vicesceriffo…..

Trailer


Upload on Youtube

Info File

General
Complete name : Wyatt Earp (1994).ita.eng.sub.ita.eng.MIRCrew\Wyatt Earp (1994).ita.eng.sub.ita.eng.MIRCrew.avi
Format : AVI
Format/Info : Audio Video Interleave
Format profile : OpenDML
File size : 2.83 GiB
Duration : 3h 10mn
Overall bit rate : 2 130 Kbps
Movie name : MIRCrew by robbyrs
Writing application : VirtualDubMod 1.5.10.2 (build 2540/release)
Writing library : VirtualDubMod build 2540/release

Video
ID : 0
Format : MPEG-4 Visual
Format profile : [email protected]
Format settings, BVOP : No
Format settings, QPel : No
Format settings, GMC : No warppoints
Format settings, Matrix : Default (H.263)
Codec ID : XVID
Codec ID/Hint : XviD
Duration : 3h 10mn
Bit rate : 1 505 Kbps
Width : 720 pixels
Height : 300 pixels
Display aspect ratio : 2.40:1
Frame rate : 23.976 fps
Color space : YUV
Chroma subsampling : 4:2:0
Bit depth : 8 bits
Scan type : Progressive
Compression mode : Lossy
Bits/(Pixel*Frame) : 0.291
Stream size : 2.00 GiB (71%)
Writing library : XviD 64

Audio #1
ID : 1
Format : AC-3
Format/Info : Audio Coding 3
Mode extension : CM (complete main)
Codec ID : 2000
Duration : 3h 10mn
Bit rate mode : Constant
Bit rate : 224 Kbps
Channel(s) : 2 channels
Channel positions : Front: L R
Sampling rate : 48.0 KHz
Bit depth : 16 bits
Compression mode : Lossy
Stream size : 305 MiB (11%)
Alignment : Split accross interleaves
Interleave, duration : 42 ms (1.00 video frame)
Interleave, preload duration : 500 ms

Audio #2
ID : 2
Format : AC-3
Format/Info : Audio Coding 3
Mode extension : CM (complete main)
Codec ID : 2000
Duration : 3h 10mn
Bit rate mode : Constant
Bit rate : 384 Kbps
Channel(s) : 6 channels
Channel positions : Front: L C R, Side: L R, LFE
Sampling rate : 48.0 KHz
Bit depth : 16 bits
Compression mode : Lossy
Stream size : 523 MiB (18%)
Alignment : Split accross interleaves
Interleave, duration : 42 ms (1.00 video frame)
Interleave, preload duration : 500 ms

Immagini

Wyatt Earp (1994), [XviD – Ita Eng Ac3 – Sub Ita Eng]
Wyatt Earp (1994), [XviD – Ita Eng Ac3 – Sub Ita Eng]
Wyatt Earp (1994), [XviD – Ita Eng Ac3 – Sub Ita Eng]
Wyatt Earp (1994), [XviD – Ita Eng Ac3 – Sub Ita Eng]
Wyatt Earp (1994), [XviD – Ita Eng Ac3 – Sub Ita Eng]

Trackers

http://tracker.publicbt.com:80/
http://tracker.istole.it:80/
http://tracker.tntvillage.scambioetico.org:2710/scrape
http://open.demonii.com:1337/scrape
http://tracker.coppersurfer.tk:6969/scrape
http://tracker.openbittorrent.com/scrape